<?xml version="1.0" standalone="no"?>
<!DOCTYPE svg PUBLIC "-//W3C//DTD SVG 1.1//EN" "http://www.w3.org/Graphics/SVG/1.1/DTD/svg11.dtd" >
<svg>
<metadata>
Created by FontForge 20090622 at Fri May  3 12:00:18 2019
 By deploy user
Copyright (c) 2016 by HENRIavecunK. All rights reserved. To aquire a commercial license please contact henriavecunk@gmail.com.
</metadata>
<defs>
<font id="MundaneGothic-Regular" horiz-adv-x="277" >
  <font-face 
    font-family="Mundane Gothic"
    font-weight="400"
    font-stretch="normal"
    units-per-em="1000"
    panose-1="0 0 0 0 0 0 0 0 0 0"
    ascent="800"
    descent="-200"
    x-height="668"
    cap-height="670"
    bbox="-0.8 -153 460 803"
    underline-thickness="50"
    underline-position="-50"
    unicode-range="U+0020-U+201D"
  />
<missing-glyph horiz-adv-x="113" 
 />
    <glyph glyph-name=".notdef" horiz-adv-x="113" 
 />
    <glyph glyph-name=".null" horiz-adv-x="0" 
 />
    <glyph glyph-name="nonmarkingreturn" horiz-adv-x="333" 
 />
    <glyph glyph-name="space" unicode=" " horiz-adv-x="113" 
 />
    <glyph glyph-name="exclam" unicode="!" horiz-adv-x="162" 
d="M50 16v44q0 10 15 10h40q15 0 15 -10v-44q0 -13 -15 -13h-40q-15 0 -15 13zM63 670h43q15 0 15 -10v-259q0 -4 -0.5 -15t-0.5 -15l-13 -241q-1 -10 -16 -10h-13q-16 0 -16 10l-13 241q-1 8 -1 30v259q0 10 15 10z" />
    <glyph glyph-name="dollar" unicode="$" horiz-adv-x="183" 
 />
    <glyph glyph-name="percent" unicode="%" horiz-adv-x="183" 
 />
    <glyph glyph-name="ampersand" unicode="&#x26;" horiz-adv-x="468" 
d="M425 62q2 -1 2.5 -6t-2.5 -11l-27 -35q-2 -3 -5.5 -4.5t-5.5 -1.5h-3h-2q-2 1 -5 2t-6 3l-49 40q-11 11 -23 1q-34 -26 -65.5 -40.5t-45.5 -15.5l-15 -2q-79 0 -126 47q-47 45 -47 126q0 58 32 109q16 26 61 76l4 5q9 7 3 22q-17 45 -27 82.5t-11 52.5l-1 16q0 70 35 108
q32 37 85 37q56 0 92 -36q36 -34 36 -84q0 -4 -0.5 -10.5t-6 -27.5t-15 -42t-30.5 -51t-50 -57q-11 -11 -4 -24l89 -138q8 -12 12 3l30 102q3 12 3 13q2 9 14 8l55 -3q11 0 8 -9q-3 -12 -4 -13l-47 -162q-4 -16 6 -24l47 -47zM129 285q-22 -31 -34.5 -60t-14.5 -42l-1 -13
q0 -49 27 -76.5t74 -27.5q33 0 71 36q11 9 2 22l-107 160q-9 12 -17 1zM140 534q0 -43 26 -111q5 5 9 12q24 32 38 63t15 46l2 14q0 21 -12.5 36.5t-27.5 15.5q-22 0 -36 -15t-14 -61z" />
    <glyph glyph-name="parenleft" unicode="(" horiz-adv-x="210" 
d="M0 297q0 103 38 224q38 117 87 196q2 2 6 2q7 0 22.5 -8.5t13.5 -14.5q-48 -121 -65.5 -200.5t-17.5 -198.5q0 -115 20 -214q16 -76 60 -179q1 -2 1 -5q0 -8 -12 -16t-21 -8q-6 0 -7 3q-52 83 -87 196q-38 117 -38 223z" />
    <glyph glyph-name="parenright" unicode=")" horiz-adv-x="210" 
d="M167 296q0 -103 -38 -224q-38 -117 -87 -196q-2 -2 -6 -2q-7 0 -22.5 8.5t-13.5 14.5q48 121 65.5 200.5t17.5 198.5q0 115 -20 214q-16 76 -60 179q-1 2 -1 5q0 8 12 16t21 8q6 0 7 -3q52 -83 87 -196q38 -117 38 -223z" />
    <glyph glyph-name="comma" unicode="," horiz-adv-x="150" 
d="M111 60v-19q0 -60 -21 -91q-4 -9 -8 -14t-6 -6h-2q-7 0 -9.5 2t-1.5 8l12 57q0 6 -20 6q-14 0 -14 10v47q0 10 15 10h40q15 0 15 -10z" />
    <glyph glyph-name="hyphen" unicode="-" horiz-adv-x="256" 
d="M0 243v42q0 13 15 13h170q15 0 15 -13v-42q0 -12 -15 -12h-170q-15 0 -15 12z" />
    <glyph glyph-name="period" unicode="." horiz-adv-x="174" 
d="M53 13v47q0 10 15 10h40q15 0 15 -10v-47q0 -10 -15 -10h-40q-15 0 -15 10z" />
    <glyph glyph-name="slash" unicode="/" horiz-adv-x="251" 
d="M0 -1l172 664q4 15 19 15h16q6 0 9.5 -4.5t1.5 -10.5l-171 -664q-3 -14 -18 -14h-17q-16 0 -12 14z" />
    <glyph glyph-name="zero" unicode="0" horiz-adv-x="324" 
d="M162 63q37 0 37 54v437q0 17 -1.5 27t-10.5 19.5t-25 9.5q-13 0 -21.5 -5.5t-11 -18.5t-3 -19.5t-0.5 -22.5v-419q0 -18 1 -28.5t9.5 -22t25.5 -11.5zM162 -4q-62 0 -86 35t-24 99v395q0 28 1.5 47.5t8 40.5t18 33.5t32.5 21t50 8.5q64 0 87 -33t23 -99v-422
q0 -61 -25 -93.5t-85 -32.5z" />
    <glyph glyph-name="one" unicode="1" horiz-adv-x="255" 
d="M201 70q15 0 15 -11v-46q0 -10 -15 -10h-138q-15 0 -15 10v46q0 11 15 11h32v488q0 5 -12 -1.5t-20 -13.5q-7 -7 -11 0t-4 15v28q0 8 27 46t39 38h39q15 0 15 -10v-590h33z" />
    <glyph glyph-name="two" unicode="2" horiz-adv-x="308" 
d="M249 630q8 -15 11.5 -30t4 -23.5t0 -30.5t-0.5 -30v-24q0 -36 -19.5 -72t-56.5 -87l-3 -5q-26 -37 -47 -86t-21 -81l-1 -80q0 -11 15 -11h117q15 0 15 -11v-46q0 -10 -15 -10h-194q-15 0 -15 10v95v20q-1 25 0 32q0 46 25.5 104.5t60.5 107.5q1 2 7 11l30.5 43t18.5 32.5
t10 33.5l-1 28q0 4 0.5 15t0.5 18.5t-1 17t-4 15.5q-9 20 -29.5 23.5t-32.5 -15.5q-7 -12 -7 -43v-21q0 -5 -16 -5q-4 0 -16.5 -1t-21.5 -0.5t-16 3.5q-3 1 -4 6.5t0 13.5t1 9q2 35 5 45q7 40 39 56q38 21 88.5 16.5t72.5 -43.5z" />
    <glyph glyph-name="three" unicode="3" horiz-adv-x="287" 
d="M179 116v144q0 21 -1 30t-9.5 19t-26.5 11q-17 1 -17 26q0 40 6 40q28 0 38 12t10 41v111q0 19 -1 29t-10 20.5t-26 10.5q-11 0 -18 -4.5t-11 -10t-5.5 -16.5t-2 -17t0 -19t0.5 -16q0 -5 -15 -5h-44q-15 0 -15 5q0 52 6 77q18 72 104 72q62 0 86 -32t24 -96v-103
q0 -27 -12 -53t-34 -37q46 -27 46 -83v-149q0 -61 -24.5 -94t-85.5 -33q-108 0 -110 125v18q0 4 15 4h44q15 0 15 -4v-11v-13t0.5 -12.5t2 -12.5t4 -10t6.5 -9t10 -5.5t13 -2.5q37 0 37 53z" />
    <glyph glyph-name="four" unicode="4" horiz-adv-x="313" 
d="M107 211h43q15 0 15 10v296q0 6 -2.5 6.5t-3.5 -5.5l-62 -298q-1 -6 1 -7.5t9 -1.5zM165 13v118q0 10 -15 10h-110q-15 0 -15 10v58q0 9 5 29l109 423q2 9 16 9h68q15 0 15 -10v-439q0 -10 15 -10h10q15 0 15 -9v-51q0 -10 -15 -10h-10q-15 0 -15 -10v-118q0 -10 -15 -10
h-43q-15 0 -15 10z" />
    <glyph glyph-name="five" unicode="5" horiz-adv-x="304" 
d="M176 426q3 0 8 -0.5t18 -4.5t23 -11.5t19.5 -23t12.5 -37.5q5 -13 5 -29v-167v-30l-5 -45q-9 -37 -36.5 -59.5t-68.5 -22.5q-54 0 -83 31q-15 17 -21 42q-5 20 -6 54v12l1 7q0 4 14 4h44q14 0 14 -4v-19l2 -25q3 -35 35 -35q8 0 15.5 4t14.5 18.5t7 38.5v29v113
q0 53 -7 71q-4 9 -11.5 14.5t-12.5 6.5h-6q-3 0 -7 -1t-13 -9.5t-13 -24.5q-5 -20 -18 -20h-44q-15 0 -15 9v348q0 10 15 10h175q15 0 15 -10v-47q0 -10 -15 -10h-101q-15 0 -15 -9v-179q0 -10 13 -3q11 6 23 9.5t18 4.5h6z" />
    <glyph glyph-name="six" unicode="6" horiz-adv-x="303" 
d="M130 407q24 7 41 7q38 0 57 -19t28 -53q3 -12 5 -31t2 -32v-13v-123v-11v-11.5v-10.5t-0.5 -11.5t-1 -11t-1.5 -11.5t-3 -10.5l-3.5 -11t-4.5 -9.5l-6 -10q-27 -38 -85 -40t-88 32q-6 7 -11 15t-8 18.5t-4.5 17.5t-2.5 21t-1 18.5v21v18.5v213l-1 98q-2 97 1 97
q4 57 27 81q29 30 83 30q64 0 87 -35q14 -22 20 -71q0 -13 1 -20q2 -24 -14 -24h-49q-3 0 -5.5 3.5t-3 9t-0.5 11v8.5v4q0 28 -13 40q-17 13 -31.5 5.5t-21.5 -26.5q-9 -25 -9 -102q3 -46 3 -65q0 -13 13 -7zM190 281q0 52 -27 63q-21 8 -35 -10q-10 -13 -10 -36
q-1 -18 -1 -112v-48q0 -2 -0.5 -15t0 -18.5t2.5 -15.5t7 -15.5t13 -8.5q13 -5 22.5 -3t14.5 9.5t8.5 18t4 22.5t1.5 23.5t0 21.5v8v116z" />
    <glyph glyph-name="seven" unicode="7" horiz-adv-x="281" 
d="M51 13l115 580q1 5 -1.5 6t-8.5 1h-3h-100q-15 0 -15 10v50q0 10 15 10h177q15 0 15 -10v-50q0 -9 -2 -25l-115 -572q-1 -10 -16 -10h-47q-7 0 -11 2t-3 8z" />
    <glyph glyph-name="eight" unicode="8" horiz-adv-x="322" 
d="M127 98q3 -35 35 -35q21 0 30 16q5 8 6 19t1 40v92v30l-1 25q-2 35 -36 35q-19 0 -30 -16q-6 -11 -6 -59v-107q0 -30 1 -40zM127 422q3 -36 35 -36q21 0 30 16q4 7 6 20q1 11 1 39v59v30l-1 24q-2 36 -36 36q-19 0 -30 -16q-6 -12 -6 -59v-74q0 -30 1 -39zM52 430v90v30
l6 54q17 72 104 72q56 0 84 -30q16 -19 21 -42q5 -20 5 -69v-90q0 -6 -3 -30q-5 -20 -15.5 -35t-19.5 -20l-8 -5q46 -26 46 -83v-119v-30l-5 -54q-17 -73 -105 -73q-54 0 -83 31q-15 17 -21 42q-6 24 -6 69v119q0 14 4 30q5 23 15.5 40t18.5 23l8 5q-46 22 -46 75z" />
    <glyph glyph-name="nine" unicode="9" horiz-adv-x="308" 
d="M174 265q-24 -7 -41 -7q-38 0 -57 18.5t-28 52.5q-7 26 -7 77v122v12v13t0.5 12t1 13.5t1.5 11.5t2.5 12.5l3.5 11t4.5 12t6.5 10.5q27 38 85 40.5t88 -31.5q6 -7 11 -15t8 -19t4.5 -17.5t2.5 -21t1 -19v-20.5v-18v-214q0 -21 1 -61t1 -72.5t-2 -60.5q-4 -57 -27 -81
q-27 -30 -83 -30q-64 0 -87 35q-14 21 -20 71q0 13 -1 19q-2 26 14 26q8 0 24.5 -0.5t24.5 -0.5q5 0 7 -6t2 -18v-13q0 -27 13 -39q17 -13 31.5 -5.5t21.5 26.5q5 15 6.5 32t0.5 45t-1 33v56q0 12 -13 8zM114 391q0 -53 27 -64q21 -8 35 11q10 12 10 35q1 19 1 113v48
q0 2 0.5 15t0 18t-2.5 15t-7 15.5t-13 8.5q-13 5 -22.5 3t-14.5 -9.5t-8.5 -18t-4 -22.5t-1.5 -23.5t0 -21.5v-8v-115z" />
    <glyph glyph-name="colon" unicode=":" horiz-adv-x="143" 
d="M38 13v47q0 10 15 10h40q15 0 15 -10v-47q0 -10 -15 -10h-40q-15 0 -15 10zM38 277v46q0 10 15 10h40q15 0 15 -10v-46q0 -11 -15 -11h-40q-15 0 -15 11z" />
    <glyph glyph-name="semicolon" unicode=";" horiz-adv-x="145" 
d="M108 60v-19q0 -60 -21 -91q-4 -9 -8 -14t-6 -6h-2q-7 0 -9.5 2t-1.5 8l12 57q0 6 -20 6q-14 0 -14 10v47q0 10 15 10h40q15 0 15 -10zM38 277v46q0 10 15 10h40q15 0 15 -10v-46q0 -11 -15 -11h-40q-15 0 -15 11z" />
    <glyph glyph-name="question" unicode="?" horiz-adv-x="284" 
d="M249 610q5 -20 5 -54v-30v-36q1 -75 -48 -159q0 -1 -9 -15.5t-16 -29.5t-9 -24q-2 -7 -2 -34q-1 -8 -1 -30v-69q0 -10 -15 -10h-40q-15 0 -15 10v95q0 4 0.5 15t0.5 15l7 43q4 13 19 37l15 26l9 15q2 4 8.5 19t8.5 18q8 16 11.5 34.5t3.5 29.5l-1 11v39v30l-1 25
q-2 35 -36 35q-12 0 -19 -6q-10 -10 -14 -20q-1 -6 -2 -34q-1 -8 -1 -23q0 -8 -15 -8h-44q-15 0 -15 8q0 15 1 23l5 54q17 73 104 73q35 3 71 -20q5 -3 22 -23zM99 13v47q0 10 15 10h40q15 0 15 -10v-47q0 -10 -15 -10h-40q-15 0 -15 10z" />
    <glyph glyph-name="A" unicode="A" 
d="M111 249q0 -13 14 -13h29q6 0 10 3.5t3 9.5l-3 35l-8 72q-8 76 -11 114q0 4 -0.5 15t-1.5 20.5t-2 14.5q0 3 -2 3q-3 0 -3 -3q0 -1 -8 -79q-9 -81 -15 -162q-2 -18 -2 -30zM264 14v-2q1 -5 -3 -8t-10 -3h-43q-16 0 -17 13l-14 146q-1 10 -16 10h-43q-5 0 -9 -1.5
t-5.5 -5.5t-2.5 -6t-1.5 -8.5t-0.5 -8.5l-12 -126q-1 -13 -16 -13h-43q-14 0 -14 11v2l90 641q2 13 17 13h38q14 0 16 -13z" />
    <glyph glyph-name="B" unicode="B" horiz-adv-x="291" 
d="M184 229q0 81 -54 81q-16 0 -16 -15v-102v-106q0 -10 2 -13t12 -3t21 6q10 6 17 15.5t10.5 17.5t5.5 23t2.5 21.5t0 24.5t-0.5 21v29zM114 591v-201q0 -11 12 -11q58 0 58 68v74q0 46 -27 70q-14 12 -26 12h-7q-10 0 -10 -12zM208 340q17 -6 27.5 -16.5t15 -26.5t5.5 -28
t1 -33v-46q0 -137 -77 -175q-27 -13 -74 -13q-8 0 -25 0.5t-26 0.5q-15 0 -15 23v630q0 15 26 15q68 0 80 -2q112 -18 112 -191q0 -108 -50 -138z" />
    <glyph glyph-name="C" unicode="C" horiz-adv-x="253" 
d="M178 146h45q5 0 8 -1t4 -3.5t1.5 -4.5t0 -7t-0.5 -7q0 -61 -24.5 -94t-84.5 -33q-35 0 -71 23q-39 24 -39 104v427q0 62 24.5 94t85.5 32q67 0 88.5 -37t21.5 -109q0 -5 -15 -5h-44q-15 0 -15 5q0 3 0.5 13.5t0 15.5t-1 14.5t-3 14.5t-6.5 11t-10.5 8.5t-15.5 2.5
q-34 0 -37 -60v-127v-270q0 -2 -0.5 -20.5t0.5 -25.5t4 -20t11.5 -18.5t21.5 -5.5q6 0 11.5 1.5t9 5.5l6.5 7.5t4.5 10l2.5 10.5t1.5 12t0.5 11v11.5v9.5q0 4 15 4z" />
    <glyph glyph-name="D" unicode="D" horiz-adv-x="290" 
d="M237 600q20 -39 20 -95v-168v-169q0 -55 -20 -95q-36 -70 -113 -70h-69q-15 0 -15 10v324v323q0 10 15 10h69q78 0 113 -70zM184 151v186v186q0 36 -17.5 58t-35.5 22q-12 0 -14.5 -2t-2.5 -13v-251v-257q0 -6 0.5 -7.5t1.5 -2t6 0t9 0.5q18 0 35.5 21.5t17.5 58.5z" />
    <glyph glyph-name="E" unicode="E" horiz-adv-x="253" 
d="M50 13v646q0 11 15 11h144q15 0 15 -10v-47q0 -10 -15 -10h-70q-15 0 -15 -10v-208q0 -9 15 -9h70q15 0 15 -10v-41q0 -6 -4.5 -10.5t-10.5 -4.5h-70q-15 0 -15 -10v-220q0 -10 15 -10h70q15 0 15 -9v-48q0 -10 -15 -10h-144q-15 0 -15 10z" />
    <glyph glyph-name="F" unicode="F" horiz-adv-x="242" 
d="M53 13v646q0 11 15 11h137q15 0 15 -10v-47q0 -10 -15 -10h-63q-15 0 -15 -10v-207q0 -10 15 -10h63q15 0 15 -10v-46q0 -10 -15 -10h-63q-15 0 -15 -10v-287q0 -10 -15 -10h-44q-15 0 -15 10z" />
    <glyph glyph-name="G" unicode="G" horiz-adv-x="301" 
d="M153 295v48q0 9 15 9h80q15 0 15 -10v-329q0 -10 -15 -10h-10q-11 0 -15 15v1q-4 14 -15 5q-12 -12 -27 -19t-24 -8l-9 -1q-50 0 -79 31q-15 17 -21 42q-5 20 -5 54v30v367v30l5 54q17 72 105 72q55 0 83 -30q15 -16 21 -42q5 -20 6 -54v-20q0 -5 -15 -5h-44q-15 0 -15 5
v20l-1 24q-2 36 -35 36q-6 0 -16 -4q-18 -8 -21 -56v-30v-367v-30l1 -25q2 -35 36 -35q12 0 19 6q15 15 16 29q0 5 0.5 14.5t0.5 14.5v154q0 3 -3.5 4.5t-7.5 0.5h-4h-6q-15 0 -15 9z" />
    <glyph glyph-name="H" unicode="H" horiz-adv-x="296" 
d="M39 13v647q0 10 15 10h44q15 0 15 -10v-274q0 -10 15 -10h36q15 0 15 10v274q0 10 15 10h44q15 0 15 -10v-647q0 -10 -15 -10h-44q-15 0 -15 10v287q0 10 -15 10h-36q-15 0 -15 -10v-287q0 -10 -15 -10h-44q-15 0 -15 10z" />
    <glyph glyph-name="I" unicode="I" horiz-adv-x="157" 
d="M39 14v646q0 10 15 10h44q15 0 15 -10v-646q0 -11 -15 -11h-44q-15 0 -15 11z" />
    <glyph glyph-name="J" unicode="J" horiz-adv-x="271" 
d="M218 670q15 0 15 -10v-460v-47v-30l-5 -54q-4 -17 -13 -30t-21 -20q-16 -10 -34 -16t-28 -7h-9q-87 0 -104 73q-5 21 -5 54v12l1 7q0 4 12 4h45q15 0 15 -4v-18q0 -38 17 -55q3 -3 8 -4.5t8 -1.5h3q34 0 36 35q1 10 1 25v30v507q0 10 15 10h43z" />
    <glyph glyph-name="K" unicode="K" horiz-adv-x="282" 
d="M39 14v645q0 11 15 11h44q15 0 15 -11v-291q0 -4 2 -5.5t4 -0.5t3 5l69 293q1 10 19 10h44q14 0 10 -10l-82 -301q-4 -14 0 -28l86 -318q4 -10 -10 -10h-49q-17 0 -19 10l-68 291q-1 4 -3 5t-4 -0.5t-2 -5.5v-289q0 -11 -15 -11h-44q-15 0 -15 11z" />
    <glyph glyph-name="L" unicode="L" horiz-adv-x="237" 
d="M50 12v650q0 8 15 8h44q15 0 15 -8v-584q0 -8 15 -8h63q15 0 15 -8v-50q0 -9 -15 -9h-137q-15 0 -15 9z" />
    <glyph glyph-name="M" unicode="M" horiz-adv-x="377" 
d="M39 13v647q0 10 15 10h63q16 0 17 -10l55 -302q1 -6 4.5 -6t4.5 6l49 302q1 10 16 10h65q15 0 15 -10v-647q0 -10 -15 -10h-37q-15 0 -15 10l5 503q0 6 -2.5 6t-3.5 -6l-55 -312q-1 -10 -17 -10h-21q-14 0 -17 10l-57 312q-1 6 -4 6t-3 -6l5 -503q0 -10 -15 -10h-37
q-15 0 -15 10z" />
    <glyph glyph-name="N" unicode="N" horiz-adv-x="297" 
d="M37 13v647q0 10 15 10h44q16 0 18 -10l80 -435q2 -6 5 -6t3 6l-5 435q0 10 15 10h37q15 0 15 -10v-647q0 -10 -15 -10h-45q-16 0 -18 10l-79 436q-1 4 -3 5.5t-3.5 -0.5t-1.5 -6l5 -435q0 -10 -15 -10h-37q-15 0 -15 10z" />
    <glyph glyph-name="O" unicode="O" horiz-adv-x="273" 
d="M100 98q3 -35 36 -35q19 0 30 16q3 6 5 19q1 11 1 40v382v30l-1 24q-2 36 -35 36q-21 0 -30 -16q-7 -12 -7 -59v-397q0 -30 1 -40zM240 69q-19 -73 -104 -73q-56 0 -84 31q-15 17 -21 42q-5 20 -5 69v382v30l5 54q17 72 105 72q55 0 83 -30q15 -16 21 -42q6 -24 6 -69
v-397q0 -44 -6 -69z" />
    <glyph glyph-name="P" unicode="P" horiz-adv-x="278" 
d="M122 350h12q25 0 39.5 16.5t14.5 42.5v121q0 28 -11 50.5t-36 22.5h-19q-4 0 -4 -15v-223q0 -15 4 -15zM44 13v647q0 10 15 10h82q21 0 30 -2q41 -10 65.5 -47t24.5 -81v-118q0 -66 -21 -96q-19 -28 -42.5 -35.5t-64.5 -7.5q-15 0 -15 -7v-263q0 -10 -15 -10h-44
q-15 0 -15 10z" />
    <glyph glyph-name="Q" unicode="Q" horiz-adv-x="283" 
d="M109 98q5 -35 36 -35q21 0 30 16q5 6 5 19q1 5 1 40v382v30l-1 24q-2 36 -35 36q-19 0 -30 -16q-7 -14 -7 -59v-397q0 -11 0.5 -23.5t0.5 -16.5zM61 27q-13 17 -21 42q-5 25 -5 69v382v30l5 54q17 72 105 72q56 0 83 -30q18 -18 21 -42q6 -41 6 -69v-382v-30l-6 -54
q-9 -40 -44 -59l39 -77q3 -5 1 -6.5t-9 -1.5h-54q-13 0 -18 8l-32 64q-48 6 -71 30z" />
    <glyph glyph-name="R" unicode="R" horiz-adv-x="288" 
d="M179 432v96q0 6 -1.5 16t-1.5 16q0 18 -12.5 30t-30.5 12h-19q-5 0 -5 -15v-193q0 -15 10 -15q60 0 60 53zM252 539v-105q0 -28 -12 -51.5t-24 -32.5l-11 -10q47 -26 47 -79h1v-248q0 -10 -15 -10h-44q-15 0 -15 10l-1 233q0 7 -2 15q-4 22 -15 34.5t-20 14.5l-9 1h-18
q-5 0 -5 -15v-284q0 -10 -15 -10h-44q-15 0 -15 15v647q0 5 15 5h82q14 0 30 -2q20 -3 36 -9t22 -10l6 -5q16 -15 21 -35.5t5 -68.5z" />
    <glyph glyph-name="S" unicode="S" horiz-adv-x="297" 
d="M259 187q2 -54 -3 -91.5t-10 -47.5l-6 -10q-29 -37 -84 -41.5t-88 27.5q-27 26 -29 90q-4 27 2 30q3 2 26 2h29q10 0 13 -2t3 -21q0 -60 40 -60l10 2q27 16 23 123q0 21 -12 48.5t-22 42.5l-33 49l-4 5l-37.5 54.5t-25.5 49t-13 55.5v24v8q-1 7 -1 15t0.5 20.5t2 24
t5.5 24t9 22.5q22 40 73 45t87 -18q32 -17 40 -56q2 -7 4 -45q0 -1 1 -9.5t0 -13.5t-4 -6q-6 -2 -54 -2q-16 0 -16 5v21q0 33 -7 43q-12 19 -31.5 16t-28.5 -23q-4 -9 -5.5 -25t-0.5 -28v-11q0 -12 -1 -31q0 -13 10 -33.5t18.5 -32.5l30.5 -43q6 -9 7 -11q26 -36 41 -60
t28 -59t13 -66z" />
    <glyph glyph-name="T" unicode="T" horiz-adv-x="235" 
d="M81 13v580q0 10 -15 10h-40q-15 0 -15 10v47q0 10 15 10h183q15 0 15 -10v-47q0 -10 -15 -10h-40q-15 0 -15 -10v-580q0 -10 -15 -10h-43q-15 0 -15 10z" />
    <glyph glyph-name="U" unicode="U" horiz-adv-x="275" 
d="M45 670h44q15 0 15 -11v-536l1 -25q2 -35 35 -35q21 0 30 16q5 8 6 19l3 51l-2 510q0 11 15 11h43q15 0 15 -11v-536l-5 -54q-17 -73 -105 -73q-54 0 -83 31q-15 17 -21 42q-6 24 -6 69v521q0 11 15 11z" />
    <glyph glyph-name="V" unicode="V" horiz-adv-x="278" 
d="M253 668q5 0 7.5 -0.5t4.5 -2.5t1 -6l-89 -649q-1 -9 -17 -9h-38q-15 0 -17 9l-88 649q-1 5 2.5 7t10.5 2h43q16 0 17 -9l50 -511q0 -2 2 -2q3 0 3 2l49 511q0 9 16 9h43z" />
    <glyph glyph-name="W" unicode="W" horiz-adv-x="401" 
d="M366 669q15 0 13 -13l-74 -641q-2 -13 -16 -13h-38q-15 0 -17 13l-32 232q-2 5 -3 1l-33 -233q-2 -13 -17 -13h-38q-14 0 -16 13l-74 641q-2 13 13 13h43q15 0 17 -13l35 -506q0 -3 2 -3q3 0 3 3q20 103 38 251q1 4 1.5 6.5t2.5 4.5l3 3t4.5 1.5t4.5 1t5.5 0.5h6.5h7h7
t5 -0.5t5 -2t3.5 -4.5t1.5 -7q6 -66 15.5 -129.5t16.5 -94.5l7 -30q0 -3 3 -3q2 0 2 3l33 506q2 13 17 13h43z" />
    <glyph glyph-name="X" unicode="X" horiz-adv-x="284" 
d="M31 670h49q17 0 18 -10l39 -251q0 -4 2.5 -6t5.5 0t3 6l34 251q2 10 19 10h45q7 0 9.5 -2t1.5 -8l-72 -310q-4 -15 0 -29l81 -309q1 -5 -1.5 -7t-9.5 -2h-49q-18 0 -19 10l-39 263q-1 6 -5.5 6t-5.5 -6l-36 -263q-1 -10 -18 -10h-44q-7 0 -10 2t-2 8l72 311q4 15 0 30
l-80 306q-1 6 2 8t10 2z" />
    <glyph glyph-name="Y" unicode="Y" horiz-adv-x="279" 
d="M32 670h49q17 0 18 -10l41 -252q1 -6 5 -6t5 6l39 252q1 10 18 10h45q7 0 10 -2t2 -8l-79 -381q-3 -12 -3 -30v-236q0 -10 -15 -10h-43q-15 0 -15 10v235q0 6 -3 30l-86 382q-1 6 2 8t10 2z" />
    <glyph glyph-name="Z" unicode="Z" horiz-adv-x="238" 
d="M21 13v39q0 18 3 30l103 511q1 6 -2 8t-10 2h-79q-15 0 -15 10v47q0 10 15 10h155q15 0 15 -10v-47q0 -8 -3 -20l-105 -513q-1 -4 1 -6t5.5 -3t7.5 -1h89q15 0 15 -10v-47q0 -10 -15 -10h-165q-15 0 -15 10z" />
    <glyph glyph-name="grave" unicode="`" horiz-adv-x="164" 
d="M111 686h-8q-17 0 -22 9l-48 76q-5 9 7 9h39q17 0 21 -10l22 -74q1 -6 -1.5 -8t-9.5 -2z" />
    <glyph glyph-name="a" unicode="a" 
d="M111 249q0 -13 14 -13h29q6 0 10 3.5t3 9.5l-3 35l-8 72q-8 76 -11 114q0 4 -0.5 15t-1.5 20.5t-2 14.5q0 3 -2 3q-3 0 -3 -3q0 -1 -8 -79q-9 -81 -15 -162q-2 -18 -2 -30zM264 14v-2q1 -5 -3 -8t-10 -3h-43q-16 0 -17 13l-14 146q-1 10 -16 10h-43q-5 0 -9 -1.5
t-5.5 -5.5t-2.5 -6t-1.5 -8.5t-0.5 -8.5l-12 -126q-1 -13 -16 -13h-43q-14 0 -14 11v2l90 641q2 13 17 13h38q14 0 16 -13z" />
    <glyph glyph-name="b" unicode="b" horiz-adv-x="291" 
d="M184 229q0 81 -54 81q-16 0 -16 -15v-102v-106q0 -10 2 -13t12 -3t21 6q10 6 17 15.5t10.5 17.5t5.5 23t2.5 21.5t0 24.5t-0.5 21v29zM114 591v-201q0 -11 12 -11q58 0 58 68v74q0 46 -27 70q-14 12 -26 12h-7q-10 0 -10 -12zM208 340q17 -6 27.5 -16.5t15 -26.5t5.5 -28
t1 -33v-46q0 -137 -77 -175q-27 -13 -74 -13q-8 0 -25 0.5t-26 0.5q-15 0 -15 23v630q0 15 26 15q68 0 80 -2q112 -18 112 -191q0 -108 -50 -138z" />
    <glyph glyph-name="c" unicode="c" horiz-adv-x="253" 
d="M178 146h45q5 0 8 -1t4 -3.5t1.5 -4.5t0 -7t-0.5 -7q0 -61 -24.5 -94t-84.5 -33q-35 0 -71 23q-39 24 -39 104v427q0 62 24.5 94t85.5 32q67 0 88.5 -37t21.5 -109q0 -5 -15 -5h-44q-15 0 -15 5q0 3 0.5 13.5t0 15.5t-1 14.5t-3 14.5t-6.5 11t-10.5 8.5t-15.5 2.5
q-34 0 -37 -60v-127v-270q0 -2 -0.5 -20.5t0.5 -25.5t4 -20t11.5 -18.5t21.5 -5.5q6 0 11.5 1.5t9 5.5l6.5 7.5t4.5 10l2.5 10.5t1.5 12t0.5 11v11.5v9.5q0 4 15 4z" />
    <glyph glyph-name="d" unicode="d" horiz-adv-x="290" 
d="M237 600q20 -39 20 -95v-168v-169q0 -55 -20 -95q-36 -70 -113 -70h-69q-15 0 -15 10v324v323q0 10 15 10h69q78 0 113 -70zM184 151v186v186q0 36 -17.5 58t-35.5 22q-12 0 -14.5 -2t-2.5 -13v-251v-257q0 -6 0.5 -7.5t1.5 -2t6 0t9 0.5q18 0 35.5 21.5t17.5 58.5z" />
    <glyph glyph-name="e" unicode="e" horiz-adv-x="253" 
d="M50 13v646q0 11 15 11h144q15 0 15 -10v-47q0 -10 -15 -10h-70q-15 0 -15 -10v-208q0 -9 15 -9h70q15 0 15 -10v-41q0 -6 -4.5 -10.5t-10.5 -4.5h-70q-15 0 -15 -10v-220q0 -10 15 -10h70q15 0 15 -9v-48q0 -10 -15 -10h-144q-15 0 -15 10z" />
    <glyph glyph-name="f" unicode="f" horiz-adv-x="242" 
d="M53 13v646q0 11 15 11h137q15 0 15 -10v-47q0 -10 -15 -10h-63q-15 0 -15 -10v-207q0 -10 15 -10h63q15 0 15 -10v-46q0 -10 -15 -10h-63q-15 0 -15 -10v-287q0 -10 -15 -10h-44q-15 0 -15 10z" />
    <glyph glyph-name="g" unicode="g" horiz-adv-x="301" 
d="M153 295v48q0 9 15 9h80q15 0 15 -10v-329q0 -10 -15 -10h-10q-11 0 -15 15v1q-4 14 -15 5q-12 -12 -27 -19t-24 -8l-9 -1q-50 0 -79 31q-15 17 -21 42q-5 20 -5 54v30v367v30l5 54q17 72 105 72q55 0 83 -30q15 -16 21 -42q5 -20 6 -54v-20q0 -5 -15 -5h-44q-15 0 -15 5
v20l-1 24q-2 36 -35 36q-6 0 -16 -4q-18 -8 -21 -56v-30v-367v-30l1 -25q2 -35 36 -35q12 0 19 6q15 15 16 29q0 5 0.5 14.5t0.5 14.5v154q0 3 -3.5 4.5t-7.5 0.5h-4h-6q-15 0 -15 9z" />
    <glyph glyph-name="h" unicode="h" horiz-adv-x="296" 
d="M39 13v647q0 10 15 10h44q15 0 15 -10v-274q0 -10 15 -10h36q15 0 15 10v274q0 10 15 10h44q15 0 15 -10v-647q0 -10 -15 -10h-44q-15 0 -15 10v287q0 10 -15 10h-36q-15 0 -15 -10v-287q0 -10 -15 -10h-44q-15 0 -15 10z" />
    <glyph glyph-name="i" unicode="i" horiz-adv-x="157" 
d="M39 14v646q0 10 15 10h44q15 0 15 -10v-646q0 -11 -15 -11h-44q-15 0 -15 11z" />
    <glyph glyph-name="j" unicode="j" horiz-adv-x="271" 
d="M218 670q15 0 15 -10v-460v-47v-30l-5 -54q-4 -17 -13 -30t-21 -20q-16 -10 -34 -16t-28 -7h-9q-87 0 -104 73q-5 21 -5 54v12l1 7q0 4 12 4h45q15 0 15 -4v-18q0 -38 17 -55q3 -3 8 -4.5t8 -1.5h3q34 0 36 35q1 10 1 25v30v507q0 10 15 10h43z" />
    <glyph glyph-name="k" unicode="k" horiz-adv-x="282" 
d="M39 14v645q0 11 15 11h44q15 0 15 -11v-291q0 -4 2 -5.5t4 -0.5t3 5l69 293q1 10 19 10h44q14 0 10 -10l-82 -301q-4 -14 0 -28l86 -318q4 -10 -10 -10h-49q-17 0 -19 10l-68 291q-1 4 -3 5t-4 -0.5t-2 -5.5v-289q0 -11 -15 -11h-44q-15 0 -15 11z" />
    <glyph glyph-name="l" unicode="l" horiz-adv-x="237" 
d="M50 12v650q0 8 15 8h44q15 0 15 -8v-584q0 -8 15 -8h63q15 0 15 -8v-50q0 -9 -15 -9h-137q-15 0 -15 9z" />
    <glyph glyph-name="m" unicode="m" horiz-adv-x="377" 
d="M39 13v647q0 10 15 10h63q16 0 17 -10l55 -302q1 -6 4.5 -6t4.5 6l49 302q1 10 16 10h65q15 0 15 -10v-647q0 -10 -15 -10h-37q-15 0 -15 10l5 503q0 6 -2.5 6t-3.5 -6l-55 -312q-1 -10 -17 -10h-21q-14 0 -17 10l-57 312q-1 6 -4 6t-3 -6l5 -503q0 -10 -15 -10h-37
q-15 0 -15 10z" />
    <glyph glyph-name="n" unicode="n" horiz-adv-x="297" 
d="M37 13v647q0 10 15 10h44q16 0 18 -10l80 -435q2 -6 5 -6t3 6l-5 435q0 10 15 10h37q15 0 15 -10v-647q0 -10 -15 -10h-45q-16 0 -18 10l-79 436q-1 4 -3 5.5t-3.5 -0.5t-1.5 -6l5 -435q0 -10 -15 -10h-37q-15 0 -15 10z" />
    <glyph glyph-name="o" unicode="o" horiz-adv-x="273" 
d="M100 98q3 -35 36 -35q19 0 30 16q3 6 5 19q1 11 1 40v382v30l-1 24q-2 36 -35 36q-21 0 -30 -16q-7 -12 -7 -59v-397q0 -30 1 -40zM240 69q-19 -73 -104 -73q-56 0 -84 31q-15 17 -21 42q-5 20 -5 69v382v30l5 54q17 72 105 72q55 0 83 -30q15 -16 21 -42q6 -24 6 -69
v-397q0 -44 -6 -69z" />
    <glyph glyph-name="p" unicode="p" horiz-adv-x="278" 
d="M122 350h12q25 0 39.5 16.5t14.5 42.5v121q0 28 -11 50.5t-36 22.5h-19q-4 0 -4 -15v-223q0 -15 4 -15zM44 13v647q0 10 15 10h82q21 0 30 -2q41 -10 65.5 -47t24.5 -81v-118q0 -66 -21 -96q-19 -28 -42.5 -35.5t-64.5 -7.5q-15 0 -15 -7v-263q0 -10 -15 -10h-44
q-15 0 -15 10z" />
    <glyph glyph-name="q" unicode="q" horiz-adv-x="283" 
d="M109 98q5 -35 36 -35q21 0 30 16q5 6 5 19q1 5 1 40v382v30l-1 24q-2 36 -35 36q-19 0 -30 -16q-7 -14 -7 -59v-397q0 -11 0.5 -23.5t0.5 -16.5zM61 27q-13 17 -21 42q-5 25 -5 69v382v30l5 54q17 72 105 72q56 0 83 -30q18 -18 21 -42q6 -41 6 -69v-382v-30l-6 -54
q-9 -40 -44 -59l39 -77q3 -5 1 -6.5t-9 -1.5h-54q-13 0 -18 8l-32 64q-48 6 -71 30z" />
    <glyph glyph-name="r" unicode="r" horiz-adv-x="288" 
d="M179 432v96q0 6 -1.5 16t-1.5 16q0 18 -12.5 30t-30.5 12h-19q-5 0 -5 -15v-193q0 -15 10 -15q60 0 60 53zM252 539v-105q0 -28 -12 -51.5t-24 -32.5l-11 -10q47 -26 47 -79h1v-248q0 -10 -15 -10h-44q-15 0 -15 10l-1 233q0 7 -2 15q-4 22 -15 34.5t-20 14.5l-9 1h-18
q-5 0 -5 -15v-284q0 -10 -15 -10h-44q-15 0 -15 15v647q0 5 15 5h82q14 0 30 -2q20 -3 36 -9t22 -10l6 -5q16 -15 21 -35.5t5 -68.5z" />
    <glyph glyph-name="s" unicode="s" horiz-adv-x="297" 
d="M259 187q2 -54 -3 -91.5t-10 -47.5l-6 -10q-29 -37 -84 -41.5t-88 27.5q-27 26 -29 90q-4 27 2 30q3 2 26 2h29q10 0 13 -2t3 -21q0 -60 40 -60l10 2q27 16 23 123q0 21 -12 48.5t-22 42.5l-33 49l-4 5l-37.5 54.5t-25.5 49t-13 55.5v24v8q-1 7 -1 15t0.5 20.5t2 24
t5.5 24t9 22.5q22 40 73 45t87 -18q32 -17 40 -56q2 -7 4 -45q0 -1 1 -9.5t0 -13.5t-4 -6q-6 -2 -54 -2q-16 0 -16 5v21q0 33 -7 43q-12 19 -31.5 16t-28.5 -23q-4 -9 -5.5 -25t-0.5 -28v-11q0 -12 -1 -31q0 -13 10 -33.5t18.5 -32.5l30.5 -43q6 -9 7 -11q26 -36 41 -60
t28 -59t13 -66z" />
    <glyph glyph-name="t" unicode="t" horiz-adv-x="235" 
d="M81 13v580q0 10 -15 10h-40q-15 0 -15 10v47q0 10 15 10h183q15 0 15 -10v-47q0 -10 -15 -10h-40q-15 0 -15 -10v-580q0 -10 -15 -10h-43q-15 0 -15 10z" />
    <glyph glyph-name="u" unicode="u" horiz-adv-x="275" 
d="M45 670h44q15 0 15 -11v-536l1 -25q2 -35 35 -35q21 0 30 16q5 8 6 19l3 51l-2 510q0 11 15 11h43q15 0 15 -11v-536l-5 -54q-17 -73 -105 -73q-54 0 -83 31q-15 17 -21 42q-6 24 -6 69v521q0 11 15 11z" />
    <glyph glyph-name="v" unicode="v" horiz-adv-x="278" 
d="M253 668q5 0 7.5 -0.5t4.5 -2.5t1 -6l-89 -649q-1 -9 -17 -9h-38q-15 0 -17 9l-88 649q-1 5 2.5 7t10.5 2h43q16 0 17 -9l50 -511q0 -2 2 -2q3 0 3 2l49 511q0 9 16 9h43z" />
    <glyph glyph-name="w" unicode="w" horiz-adv-x="401" 
d="M366 669q15 0 13 -13l-74 -641q-2 -13 -16 -13h-38q-15 0 -17 13l-32 232q-2 5 -3 1l-33 -233q-2 -13 -17 -13h-38q-14 0 -16 13l-74 641q-2 13 13 13h43q15 0 17 -13l35 -506q0 -3 2 -3q3 0 3 3q20 103 38 251q1 4 1.5 6.5t2.5 4.5l3 3t4.5 1.5t4.5 1t5.5 0.5h6.5h7h7
t5 -0.5t5 -2t3.5 -4.5t1.5 -7q6 -66 15.5 -129.5t16.5 -94.5l7 -30q0 -3 3 -3q2 0 2 3l33 506q2 13 17 13h43z" />
    <glyph glyph-name="x" unicode="x" horiz-adv-x="284" 
d="M31 670h49q17 0 18 -10l39 -251q0 -4 2.5 -6t5.5 0t3 6l34 251q2 10 19 10h45q7 0 9.5 -2t1.5 -8l-72 -310q-4 -15 0 -29l81 -309q1 -5 -1.5 -7t-9.5 -2h-49q-18 0 -19 10l-39 263q-1 6 -5.5 6t-5.5 -6l-36 -263q-1 -10 -18 -10h-44q-7 0 -10 2t-2 8l72 311q4 15 0 30
l-80 306q-1 6 2 8t10 2z" />
    <glyph glyph-name="y" unicode="y" horiz-adv-x="279" 
d="M32 670h49q17 0 18 -10l41 -252q1 -6 5 -6t5 6l39 252q1 10 18 10h45q7 0 10 -2t2 -8l-79 -381q-3 -12 -3 -30v-236q0 -10 -15 -10h-43q-15 0 -15 10v235q0 6 -3 30l-86 382q-1 6 2 8t10 2z" />
    <glyph glyph-name="z" unicode="z" horiz-adv-x="238" 
d="M21 13v39q0 18 3 30l103 511q1 6 -2 8t-10 2h-79q-15 0 -15 10v47q0 10 15 10h155q15 0 15 -10v-47q0 -8 -3 -20l-105 -513q-1 -4 1 -6t5.5 -3t7.5 -1h89q15 0 15 -10v-47q0 -10 -15 -10h-165q-15 0 -15 10z" />
    <glyph glyph-name="bar" unicode="|" horiz-adv-x="175" 
d="M59 -14v690q0 6 4.5 10.5t10.5 4.5h24q6 0 10.5 -4.5t4.5 -10.5v-690q0 -15 -15 -15h-24q-15 0 -15 15z" />
    <glyph glyph-name="exclamdown" unicode="&#xa1;" horiz-adv-x="162" 
d="M106 3h-43q-15 0 -15 10v259q0 22 1 30l13 241q0 10 16 10h13q15 0 16 -10l13 -241q0 -4 0.5 -15t0.5 -15v-259q0 -10 -15 -10zM50 613v44q0 13 15 13h40q15 0 15 -13v-44q0 -10 -15 -10h-40q-15 0 -15 10z" />
    <glyph glyph-name="sterling" unicode="&#xa3;" horiz-adv-x="183" 
 />
    <glyph glyph-name="dieresis" unicode="&#xa8;" horiz-adv-x="240" 
d="M145 729v36q0 6 4.5 10.5t10.5 4.5h33q15 0 15 -15v-36q0 -15 -15 -15h-33q-6 0 -10.5 4.5t-4.5 10.5zM31 729v36q0 6 4.5 10.5t10.5 4.5h34q15 0 15 -15v-36q0 -15 -15 -15h-34q-6 0 -10.5 4.5t-4.5 10.5z" />
    <glyph glyph-name="acute" unicode="&#xb4;" horiz-adv-x="164" 
d="M61 686h-8q-7 0 -9.5 2t-1.5 8l22 74q4 10 21 10h39q12 0 7 -9l-48 -76q-5 -9 -22 -9z" />
    <glyph glyph-name="periodcentered" unicode="&#xb7;" horiz-adv-x="143" 
d="M38 277v46q0 10 15 10h40q15 0 15 -10v-46q0 -11 -15 -11h-40q-15 0 -15 11z" />
    <glyph glyph-name="questiondown" unicode="&#xbf;" horiz-adv-x="284" 
d="M40 76q-5 20 -5 54v30v36q-1 75 48 159q0 1 9 15.5t16 29.5t9 24q2 7 2 34q1 8 1 30v69q0 10 15 10h40q15 0 15 -10v-95q0 -4 -0.5 -15t-0.5 -15l-7 -43q-4 -13 -19 -37l-15 -26l-9 -15q-2 -3 -8.5 -18t-8.5 -19q-8 -16 -11.5 -34.5t-2.5 -29.5v-11v-39v-30l1 -25
q2 -35 36 -35q12 0 19 6q10 10 14 20q1 6 2 34q1 8 1 23q0 8 15 8h44q15 0 15 -8q0 -15 -1 -23l-5 -54q-17 -73 -104 -73q-35 -3 -71 20q-5 3 -22 23zM190 673v-47q0 -10 -15 -10h-40q-15 0 -15 10v47q0 10 15 10h40q15 0 15 -10z" />
    <glyph glyph-name="Agrave" unicode="&#xc0;" 
d="M111 249q0 -13 14 -13h29q6 0 10 3.5t3 9.5l-3 35l-8 72q-8 76 -11 114q0 4 -0.5 15t-1.5 20.5t-2 14.5q0 3 -2 3q-3 0 -3 -3q0 -1 -8 -79q-9 -81 -15 -162q-2 -18 -2 -30zM264 14v-2q1 -5 -3 -8t-10 -3h-43q-16 0 -17 13l-14 146q-1 10 -16 10h-43q-5 0 -9 -1.5
t-5.5 -5.5t-2.5 -6t-1.5 -8.5t-0.5 -8.5l-12 -126q-1 -13 -16 -13h-43q-14 0 -14 11v2l90 641q2 13 17 13h38q14 0 16 -13zM151 686h-8q-17 0 -22 9l-48 76q-5 9 7 9h39q17 0 21 -10l22 -74q1 -6 -1.5 -8t-9.5 -2z" />
    <glyph glyph-name="Aacute" unicode="&#xc1;" 
d="M111 249q0 -13 14 -13h29q6 0 10 3.5t3 9.5l-3 35l-8 72q-8 76 -11 114q0 4 -0.5 15t-1.5 20.5t-2 14.5q0 3 -2 3q-3 0 -3 -3q0 -1 -8 -79q-9 -81 -15 -162q-2 -18 -2 -30zM264 14v-2q1 -5 -3 -8t-10 -3h-43q-16 0 -17 13l-14 146q-1 10 -16 10h-43q-5 0 -9 -1.5
t-5.5 -5.5t-2.5 -6t-1.5 -8.5t-0.5 -8.5l-12 -126q-1 -13 -16 -13h-43q-14 0 -14 11v2l90 641q2 13 17 13h38q14 0 16 -13z" />
    <glyph glyph-name="Acircumflex" unicode="&#xc2;" 
d="M111 249q0 -13 14 -13h29q6 0 10 3.5t3 9.5l-3 35l-8 72q-8 76 -11 114q0 4 -0.5 15t-1.5 20.5t-2 14.5q0 3 -2 3q-3 0 -3 -3q0 -1 -8 -79q-9 -81 -15 -162q-2 -18 -2 -30zM264 14v-2q1 -5 -3 -8t-10 -3h-43q-16 0 -17 13l-14 146q-1 10 -16 10h-43q-5 0 -9 -1.5
t-5.5 -5.5t-2.5 -6t-1.5 -8.5t-0.5 -8.5l-12 -126q-1 -13 -16 -13h-43q-14 0 -14 11v2l90 641q2 13 17 13h38q14 0 16 -13z" />
    <glyph glyph-name="Atilde" unicode="&#xc3;" 
d="M222 769q6 0 9.5 -3t2.5 -7q-8 -32 -20 -50t-20 -20l-8 -2q-18 0 -48 24q-15 12 -28 12t-21 -26q-3 -10 -17 -10q-6 0 -9.5 3t-2.5 7q5 20 11.5 35.5t12.5 22t11.5 10.5t8.5 5h3q17 0 47 -23q19 -14 30 -14q13 0 20 26q3 10 18 10zM264 12v2l-89 641q-2 13 -16 13h-38
q-15 0 -17 -13l-90 -641v-2q0 -11 14 -11h43q15 0 16 13l12 126q0 2 0.5 6t1 6t1 5.5t1.5 5.5t3 3.5t5 2.5t7 1h43q15 0 16 -10l14 -146q1 -13 17 -13h43q6 0 10 3t3 8zM111 249q0 12 2 30q6 81 15 162q8 78 8 79q0 3 3 3q2 0 2 -3q1 -5 2 -14.5t1.5 -20.5t0.5 -15
q3 -38 11 -114l8 -72l3 -35q1 -6 -3 -9.5t-10 -3.5h-29q-14 0 -14 13z" />
    <glyph glyph-name="Adieresis" unicode="&#xc4;" 
d="M111 249q0 -13 14 -13h29q6 0 10 3.5t3 9.5l-3 35l-8 72q-8 76 -11 114q0 4 -0.5 15t-1.5 20.5t-2 14.5q0 3 -2 3q-3 0 -3 -3q0 -1 -8 -79q-9 -81 -15 -162q-2 -18 -2 -30zM264 14v-2q1 -5 -3 -8t-10 -3h-43q-16 0 -17 13l-14 146q-1 10 -16 10h-43q-5 0 -9 -1.5
t-5.5 -5.5t-2.5 -6t-1.5 -8.5t-0.5 -8.5l-12 -126q-1 -13 -16 -13h-43q-14 0 -14 11v2l90 641q2 13 17 13h38q14 0 16 -13zM165 729v36q0 6 4.5 10.5t10.5 4.5h33q15 0 15 -15v-36q0 -15 -15 -15h-33q-6 0 -10.5 4.5t-4.5 10.5zM51 729v36q0 6 4.5 10.5t10.5 4.5h34
q15 0 15 -15v-36q0 -15 -15 -15h-34q-6 0 -10.5 4.5t-4.5 10.5z" />
    <glyph glyph-name="Aring" unicode="&#xc5;" horiz-adv-x="279" 
d="M176 654l88 -638v-4q0 -9 -13 -9h-43q-16 0 -16 13l-14 140q-1 13 -17 13h-43q-15 0 -16 -13l-14 -140q-1 -13 -17 -13h-43q-13 0 -13 9v4l89 637q-44 21 -44 71q0 33 23 56t56 23t56 -23.5t23 -55.5q0 -47 -42 -70zM139 755q-13 0 -22 -9t-9 -22t9 -22t22 -9t22 9t9 22
q0 12 -9 21.5t-22 9.5zM124 235h31q13 0 13 11v2l-26 273q0 2 -3 2q-2 0 -2 -2l-25 -273v-1q-1 -5 3 -8.5t9 -3.5z" />
    <glyph glyph-name="AE" unicode="&#xc6;" horiz-adv-x="404" 
d="M153 236h34q15 0 15 10v308q0 13 -3 1l-57 -309q-1 -6 1.5 -8t9.5 -2zM16 13l153 647q3 10 17 10h175q15 0 15 -10v-47q0 -10 -15 -10h-70q-15 0 -15 -10v-207q0 -10 15 -10h70q15 0 15 -11v-45q0 -10 -15 -10h-70q-15 0 -15 -10v-220q0 -10 15 -10h70q15 0 15 -9v-48
q0 -10 -15 -10h-144q-15 0 -15 10v148q0 9 -15 9h-50q-14 0 -16 -9l-32 -148q-3 -10 -19 -10h-43q-7 0 -9.5 2t-1.5 8z" />
    <glyph glyph-name="Ccedilla" unicode="&#xc7;" horiz-adv-x="281" 
d="M238 526h-44q-15 0 -15 8v17l-1 24q-2 36 -35 36q-2 0 -4 -0.5t-8.5 -3.5t-11.5 -8.5t-9 -18t-4 -29.5v-397v-30l1 -25q2 -35 36 -35q12 0 18 6q18 13 18 54v17q0 6 15 6h45q12 0 12 -6v-17l-4 -54q-12 -51 -62 -67h1h-2q-14 -5 -19 -19l-9 -22l2 -3q43 -7 43 -49
q0 -28 -21.5 -45.5t-54.5 -17.5q-13 0 -40 6l-5 3q0 1 1 2l8 25q3 3 13 1l23 -4q15 0 24.5 8t9.5 21q0 12 -9 19.5t-23 7.5q-6 0 -12 -1h-3v3l16 45q5 11 -8 17q-1 0 -3 0.5t-4 0.5l-5 2q-21 7 -37 17q-11 6 -21 20l-12 30q-5 20 -5 54v30v367v30l5 54q17 72 105 72
q55 0 83 -30q15 -17 21 -42q5 -20 5 -54q1 -8 1 -17q0 -8 -15 -8z" />
    <glyph glyph-name="Egrave" unicode="&#xc8;" horiz-adv-x="253" 
d="M161 686h-8q-17 0 -22 9l-48 76q-5 9 7 9h39q17 0 21 -10l22 -74q1 -6 -1.5 -8t-9.5 -2zM50 13v646q0 11 15 11h144q15 0 15 -10v-47q0 -10 -15 -10h-70q-15 0 -15 -10v-208q0 -9 15 -9h70q15 0 15 -10v-41q0 -6 -4.5 -10.5t-10.5 -4.5h-70q-15 0 -15 -10v-220
q0 -10 15 -10h70q15 0 15 -9v-48q0 -10 -15 -10h-144q-15 0 -15 10z" />
    <glyph glyph-name="Eacute" unicode="&#xc9;" horiz-adv-x="253" 
d="M50 13v646q0 11 15 11h144q15 0 15 -10v-47q0 -10 -15 -10h-70q-15 0 -15 -10v-208q0 -9 15 -9h70q15 0 15 -10v-41q0 -6 -4.5 -10.5t-10.5 -4.5h-70q-15 0 -15 -10v-220q0 -10 15 -10h70q15 0 15 -9v-48q0 -10 -15 -10h-144q-15 0 -15 10zM121 686h-8q-7 0 -9.5 2
t-1.5 8l22 74q4 10 21 10h39q12 0 7 -9l-48 -76q-5 -9 -22 -9z" />
    <glyph glyph-name="Ecircumflex" unicode="&#xca;" horiz-adv-x="253" 
d="M50 13v646q0 11 15 11h144q15 0 15 -10v-47q0 -10 -15 -10h-70q-15 0 -15 -10v-208q0 -9 15 -9h70q15 0 15 -10v-41q0 -6 -4.5 -10.5t-10.5 -4.5h-70q-15 0 -15 -10v-220q0 -10 15 -10h70q15 0 15 -9v-48q0 -10 -15 -10h-144q-15 0 -15 10z" />
    <glyph glyph-name="Edieresis" unicode="&#xcb;" horiz-adv-x="253" 
d="M50 13v646q0 11 15 11h144q15 0 15 -10v-47q0 -10 -15 -10h-70q-15 0 -15 -10v-208q0 -9 15 -9h70q15 0 15 -10v-41q0 -6 -4.5 -10.5t-10.5 -4.5h-70q-15 0 -15 -10v-220q0 -10 15 -10h70q15 0 15 -9v-48q0 -10 -15 -10h-144q-15 0 -15 10z" />
    <glyph glyph-name="Igrave" unicode="&#xcc;" horiz-adv-x="157" 
d="M39 14v646q0 10 15 10h44q15 0 15 -10v-646q0 -11 -15 -11h-44q-15 0 -15 11zM91 686h-8q-17 0 -22 9l-48 76q-5 9 7 9h39q17 0 21 -10l22 -74q1 -6 -1.5 -8t-9.5 -2z" />
    <glyph glyph-name="Iacute" unicode="&#xcd;" horiz-adv-x="157" 
d="M39 14v646q0 10 15 10h44q15 0 15 -10v-646q0 -11 -15 -11h-44q-15 0 -15 11z" />
    <glyph glyph-name="Icircumflex" unicode="&#xce;" horiz-adv-x="157" 
d="M39 14v646q0 10 15 10h44q15 0 15 -10v-646q0 -11 -15 -11h-44q-15 0 -15 11z" />
    <glyph glyph-name="Idieresis" unicode="&#xcf;" horiz-adv-x="157" 
d="M39 14v646q0 10 15 10h44q15 0 15 -10v-646q0 -11 -15 -11h-44q-15 0 -15 11z" />
    <glyph glyph-name="Ntilde" unicode="&#xd1;" horiz-adv-x="297" 
d="M222 769q6 0 9.5 -3t2.5 -7q-8 -32 -20 -50t-20 -20l-8 -2q-18 0 -48 24q-15 12 -28 12t-21 -26q-3 -10 -17 -10q-6 0 -9.5 3t-2.5 7q5 20 11.5 35.5t12.5 22t11.5 10.5t8.5 5h3q17 0 47 -23q19 -14 30 -14q13 0 20 26q3 10 18 10zM37 660v-647q0 -10 15 -10h37
q15 0 15 10l-5 435q0 4 1.5 6t3.5 0.5t3 -5.5l79 -436q2 -10 18 -10h45q15 0 15 10v647q0 10 -15 10h-37q-15 0 -15 -10l5 -435q0 -6 -3 -6t-5 6l-80 435q-2 10 -18 10h-44q-15 0 -15 -10z" />
    <glyph glyph-name="Ograve" unicode="&#xd2;" horiz-adv-x="273" 
d="M151 686h-8q-17 0 -22 9l-48 76q-5 9 7 9h39q17 0 21 -10l22 -74q1 -6 -1.5 -8t-9.5 -2zM100 98q3 -35 36 -35q19 0 30 16q3 6 5 19q1 11 1 40v382v30l-1 24q-2 36 -35 36q-21 0 -30 -16q-7 -12 -7 -59v-397q0 -30 1 -40zM240 69q-19 -73 -104 -73q-56 0 -84 31
q-15 17 -21 42q-5 20 -5 69v382v30l5 54q17 72 105 72q55 0 83 -30q15 -16 21 -42q6 -24 6 -69v-397q0 -44 -6 -69z" />
    <glyph glyph-name="Oacute" unicode="&#xd3;" horiz-adv-x="273" 
d="M100 98q3 -35 36 -35q19 0 30 16q3 6 5 19q1 11 1 40v382v30l-1 24q-2 36 -35 36q-21 0 -30 -16q-7 -12 -7 -59v-397q0 -30 1 -40zM240 69q-19 -73 -104 -73q-56 0 -84 31q-15 17 -21 42q-5 20 -5 69v382v30l5 54q17 72 105 72q55 0 83 -30q15 -16 21 -42q6 -24 6 -69
v-397q0 -44 -6 -69z" />
    <glyph glyph-name="Ocircumflex" unicode="&#xd4;" horiz-adv-x="273" 
d="M100 98q3 -35 36 -35q19 0 30 16q3 6 5 19q1 11 1 40v382v30l-1 24q-2 36 -35 36q-21 0 -30 -16q-7 -12 -7 -59v-397q0 -30 1 -40zM240 69q-19 -73 -104 -73q-56 0 -84 31q-15 17 -21 42q-5 20 -5 69v382v30l5 54q17 72 105 72q55 0 83 -30q15 -16 21 -42q6 -24 6 -69
v-397q0 -44 -6 -69z" />
    <glyph glyph-name="Otilde" unicode="&#xd5;" horiz-adv-x="273" 
d="M212 769q6 0 9.5 -3t2.5 -7q-8 -32 -20 -50t-20 -20l-8 -2q-18 0 -48 24q-15 12 -28 12t-21 -26q-3 -10 -17 -10q-6 0 -9.5 3t-2.5 7q5 20 11.5 35.5t12.5 22t11.5 10.5t8.5 5h3q17 0 47 -23q19 -14 30 -14q13 0 20 26q3 10 18 10zM240 69q6 25 6 69v397q0 45 -6 69
q-6 26 -21 42q-28 30 -83 30q-88 0 -105 -72q-5 -21 -5 -54v-30v-382q0 -49 5 -69q6 -25 21 -42q28 -31 84 -31q85 0 104 73zM100 98q-1 10 -1 40v397q0 47 7 59q9 16 30 16q33 0 35 -36q1 -11 1 -24v-30v-382q0 -29 -1 -40q-2 -13 -5 -19q-11 -16 -30 -16q-33 0 -36 35z
" />
    <glyph glyph-name="Odieresis" unicode="&#xd6;" horiz-adv-x="273" 
d="M100 98q3 -35 36 -35q19 0 30 16q3 6 5 19q1 11 1 40v382v30l-1 24q-2 36 -35 36q-21 0 -30 -16q-7 -12 -7 -59v-397q0 -30 1 -40zM240 69q-19 -73 -104 -73q-56 0 -84 31q-15 17 -21 42q-5 20 -5 69v382v30l5 54q17 72 105 72q55 0 83 -30q15 -16 21 -42q6 -24 6 -69
v-397q0 -44 -6 -69zM155 729v36q0 6 4.5 10.5t10.5 4.5h33q15 0 15 -15v-36q0 -15 -15 -15h-33q-6 0 -10.5 4.5t-4.5 10.5zM41 729v36q0 6 4.5 10.5t10.5 4.5h34q15 0 15 -15v-36q0 -15 -15 -15h-34q-6 0 -10.5 4.5t-4.5 10.5z" />
    <glyph glyph-name="Oslash" unicode="&#xd8;" horiz-adv-x="323" 
d="M123 171v-51q0 -18 1.5 -28t10 -19.5t25.5 -9.5q36 0 36 52v251q0 6 -2 6q-2 -1 -4 -5l-62 -168q-5 -12 -5 -28zM196 488v62q0 18 -1.5 28.5t-10 21t-24.5 10.5q-18 0 -27 -13t-9.5 -23t-0.5 -32v-250q0 -6 1 -6q2 1 4 5l62 168q6 12 6 29zM36 3q-14 0 -14 6
q0 1 5.5 15.5l11.5 29.5t7 18q4 10 4 56v427q0 121 110 121q67 0 95 -47l12 32q3 9 22 9q12 0 12 -6q0 -3 -27 -75q-4 -11 -4 -54v-387q0 -28 -1.5 -47t-8 -40.5t-18 -34.5t-32.5 -21.5t-50 -8.5q-38 0 -81 32q-3 3 -7 3q-7 0 -9 -7t-7.5 -14t-19.5 -7z" />
    <glyph glyph-name="Ugrave" unicode="&#xd9;" horiz-adv-x="275" 
d="M45 670h44q15 0 15 -11v-536l1 -25q2 -35 35 -35q21 0 30 16q5 8 6 19l3 51l-2 510q0 11 15 11h43q15 0 15 -11v-536l-5 -54q-17 -73 -105 -73q-54 0 -83 31q-15 17 -21 42q-6 24 -6 69v521q0 11 15 11zM151 686h-8q-17 0 -22 9l-48 76q-5 9 7 9h39q17 0 21 -10l22 -74
q1 -6 -1.5 -8t-9.5 -2z" />
    <glyph glyph-name="Uacute" unicode="&#xda;" horiz-adv-x="275" 
d="M45 670h44q15 0 15 -11v-536l1 -25q2 -35 35 -35q21 0 30 16q5 8 6 19l3 51l-2 510q0 11 15 11h43q15 0 15 -11v-536l-5 -54q-17 -73 -105 -73q-54 0 -83 31q-15 17 -21 42q-6 24 -6 69v521q0 11 15 11z" />
    <glyph glyph-name="Ucircumflex" unicode="&#xdb;" horiz-adv-x="275" 
d="M45 670h44q15 0 15 -11v-536l1 -25q2 -35 35 -35q21 0 30 16q5 8 6 19l3 51l-2 510q0 11 15 11h43q15 0 15 -11v-536l-5 -54q-17 -73 -105 -73q-54 0 -83 31q-15 17 -21 42q-6 24 -6 69v521q0 11 15 11z" />
    <glyph glyph-name="Udieresis" unicode="&#xdc;" horiz-adv-x="275" 
d="M165 729v36q0 6 4.5 10.5t10.5 4.5h33q15 0 15 -15v-36q0 -15 -15 -15h-33q-6 0 -10.5 4.5t-4.5 10.5zM51 729v36q0 6 4.5 10.5t10.5 4.5h34q15 0 15 -15v-36q0 -15 -15 -15h-34q-6 0 -10.5 4.5t-4.5 10.5zM45 670h44q15 0 15 -11v-536l1 -25q2 -35 35 -35q21 0 30 16
q5 8 6 19l3 51l-2 510q0 11 15 11h43q15 0 15 -11v-536l-5 -54q-17 -73 -105 -73q-54 0 -83 31q-15 17 -21 42q-6 24 -6 69v521q0 11 15 11z" />
    <glyph glyph-name="Yacute" unicode="&#xdd;" horiz-adv-x="279" 
d="M32 670h49q17 0 18 -10l41 -252q1 -6 5 -6t5 6l39 252q1 10 18 10h45q7 0 10 -2t2 -8l-79 -381q-3 -12 -3 -30v-236q0 -10 -15 -10h-43q-15 0 -15 10v235q0 6 -3 30l-86 382q-1 6 2 8t10 2zM141 686h-8q-7 0 -9.5 2t-1.5 8l22 74q4 10 21 10h39q12 0 7 -9l-48 -76
q-5 -9 -22 -9z" />
    <glyph glyph-name="agrave" unicode="&#xe0;" 
 />
    <glyph glyph-name="aacute" unicode="&#xe1;" 
 />
    <glyph glyph-name="acircumflex" unicode="&#xe2;" 
 />
    <glyph glyph-name="atilde" unicode="&#xe3;" 
d="M222 769q6 0 9.5 -3t2.5 -7q-8 -32 -20 -50t-20 -20l-8 -2q-18 0 -48 24q-15 12 -28 12t-21 -26q-3 -10 -17 -10q-6 0 -9.5 3t-2.5 7q5 20 11.5 35.5t12.5 22t11.5 10.5t8.5 5h3q17 0 47 -23q19 -14 30 -14q13 0 20 26q3 10 18 10z" />
    <glyph glyph-name="adieresis" unicode="&#xe4;" 
 />
    <glyph glyph-name="aring" unicode="&#xe5;" horiz-adv-x="279" 
d="M176 654l88 -638v-4q0 -9 -13 -9h-43q-16 0 -16 13l-14 140q-1 13 -17 13h-43q-15 0 -16 -13l-14 -140q-1 -13 -17 -13h-43q-13 0 -13 9v4l89 637q-44 21 -44 71q0 33 23 56t56 23t56 -23.5t23 -55.5q0 -47 -42 -70zM139 755q-13 0 -22 -9t-9 -22t9 -22t22 -9t22 9t9 22
q0 12 -9 21.5t-22 9.5zM124 235h31q13 0 13 11v2l-26 273q0 2 -3 2q-2 0 -2 -2l-25 -273v-1q-1 -5 3 -8.5t9 -3.5z" />
    <glyph glyph-name="ae" unicode="&#xe6;" horiz-adv-x="404" 
d="M153 236h34q15 0 15 10v308q0 13 -3 1l-57 -309q-1 -6 1.5 -8t9.5 -2zM16 13l153 647q3 10 17 10h175q15 0 15 -10v-47q0 -10 -15 -10h-70q-15 0 -15 -10v-207q0 -10 15 -10h70q15 0 15 -11v-45q0 -10 -15 -10h-70q-15 0 -15 -10v-220q0 -10 15 -10h70q15 0 15 -9v-48
q0 -10 -15 -10h-144q-15 0 -15 10v148q0 9 -15 9h-50q-14 0 -16 -9l-32 -148q-3 -10 -19 -10h-43q-7 0 -9.5 2t-1.5 8z" />
    <glyph glyph-name="ccedilla" unicode="&#xe7;" horiz-adv-x="281" 
d="M238 526h-44q-15 0 -15 8v17l-1 24q-2 36 -35 36q-2 0 -4 -0.5t-8.5 -3.5t-11.5 -8.5t-9 -18t-4 -29.5v-397v-30l1 -25q2 -35 36 -35q12 0 18 6q18 13 18 54v17q0 6 15 6h45q12 0 12 -6v-17l-4 -54q-12 -51 -62 -67h1h-2q-14 -5 -19 -19l-9 -22l2 -3q43 -7 43 -49
q0 -28 -21.5 -45.5t-54.5 -17.5q-13 0 -40 6l-5 3q0 1 1 2l8 25q3 3 13 1l23 -4q15 0 24.5 8t9.5 21q0 12 -9 19.5t-23 7.5q-6 0 -12 -1h-3v3l16 45q5 11 -8 17q-1 0 -3 0.5t-4 0.5l-5 2q-21 7 -37 17q-11 6 -21 20l-12 30q-5 20 -5 54v30v367v30l5 54q17 72 105 72
q55 0 83 -30q15 -17 21 -42q5 -20 5 -54q1 -8 1 -17q0 -8 -15 -8z" />
    <glyph glyph-name="egrave" unicode="&#xe8;" horiz-adv-x="253" 
 />
    <glyph glyph-name="eacute" unicode="&#xe9;" horiz-adv-x="253" 
 />
    <glyph glyph-name="ecircumflex" unicode="&#xea;" horiz-adv-x="253" 
 />
    <glyph glyph-name="edieresis" unicode="&#xeb;" horiz-adv-x="253" 
 />
    <glyph glyph-name="igrave" unicode="&#xec;" horiz-adv-x="157" 
 />
    <glyph glyph-name="iacute" unicode="&#xed;" horiz-adv-x="157" 
 />
    <glyph glyph-name="icircumflex" unicode="&#xee;" horiz-adv-x="157" 
 />
    <glyph glyph-name="idieresis" unicode="&#xef;" horiz-adv-x="157" 
 />
    <glyph glyph-name="ntilde" unicode="&#xf1;" horiz-adv-x="297" 
d="M222 769q6 0 9.5 -3t2.5 -7q-8 -32 -20 -50t-20 -20l-8 -2q-18 0 -48 24q-15 12 -28 12t-21 -26q-3 -10 -17 -10q-6 0 -9.5 3t-2.5 7q5 20 11.5 35.5t12.5 22t11.5 10.5t8.5 5h3q17 0 47 -23q19 -14 30 -14q13 0 20 26q3 10 18 10z" />
    <glyph glyph-name="ograve" unicode="&#xf2;" horiz-adv-x="273" 
 />
    <glyph glyph-name="oacute" unicode="&#xf3;" horiz-adv-x="273" 
 />
    <glyph glyph-name="ocircumflex" unicode="&#xf4;" horiz-adv-x="273" 
 />
    <glyph glyph-name="otilde" unicode="&#xf5;" horiz-adv-x="273" 
d="M212 769q6 0 9.5 -3t2.5 -7q-8 -32 -20 -50t-20 -20l-8 -2q-18 0 -48 24q-15 12 -28 12t-21 -26q-3 -10 -17 -10q-6 0 -9.5 3t-2.5 7q5 20 11.5 35.5t12.5 22t11.5 10.5t8.5 5h3q17 0 47 -23q19 -14 30 -14q13 0 20 26q3 10 18 10z" />
    <glyph glyph-name="odieresis" unicode="&#xf6;" horiz-adv-x="273" 
 />
    <glyph glyph-name="oslash" unicode="&#xf8;" horiz-adv-x="323" 
d="M123 171v-51q0 -18 1.5 -28t10 -19.5t25.5 -9.5q36 0 36 52v251q0 6 -2 6q-2 -1 -4 -5l-62 -168q-5 -12 -5 -28zM196 488v62q0 18 -1.5 28.5t-10 21t-24.5 10.5q-18 0 -27 -13t-9.5 -23t-0.5 -32v-250q0 -6 1 -6q2 1 4 5l62 168q6 12 6 29zM36 3q-14 0 -14 6
q0 1 5.5 15.5l11.5 29.5t7 18q4 10 4 56v427q0 121 110 121q67 0 95 -47l12 32q3 9 22 9q12 0 12 -6q0 -3 -27 -75q-4 -11 -4 -54v-387q0 -28 -1.5 -47t-8 -40.5t-18 -34.5t-32.5 -21.5t-50 -8.5q-38 0 -81 32q-3 3 -7 3q-7 0 -9 -7t-7.5 -14t-19.5 -7z" />
    <glyph glyph-name="ugrave" unicode="&#xf9;" horiz-adv-x="275" 
 />
    <glyph glyph-name="uacute" unicode="&#xfa;" horiz-adv-x="275" 
 />
    <glyph glyph-name="ucircumflex" unicode="&#xfb;" horiz-adv-x="275" 
 />
    <glyph glyph-name="udieresis" unicode="&#xfc;" horiz-adv-x="275" 
 />
    <glyph glyph-name="yacute" unicode="&#xfd;" horiz-adv-x="279" 
 />
    <glyph glyph-name="ydieresis" unicode="&#xff;" horiz-adv-x="279" 
 />
    <glyph glyph-name="OE" unicode="&#x152;" horiz-adv-x="373" 
d="M99 98q3 -35 36 -35q19 0 30 16q3 6 5 19q1 11 1 40v382v30l-1 24q-2 36 -35 36q-21 0 -30 -16q-7 -12 -7 -59v-397q0 -30 1 -40zM330 3h-151q-22 -7 -45 -7q-54 0 -83 31q-16 19 -21 42q-5 20 -5 69v382v30l5 54q17 72 105 72q21 0 44 -6h151q15 0 15 -10v-47
q0 -10 -15 -10h-70q-15 0 -15 -10v-207q0 -10 15 -10h70q15 0 15 -10v-47q0 -9 -15 -9h-70q-15 0 -15 -10v-220q0 -10 15 -10h70q15 0 15 -10v-47q0 -10 -15 -10z" />
    <glyph glyph-name="oe" unicode="&#x153;" horiz-adv-x="373" 
d="M99 98q3 -35 36 -35q19 0 30 16q3 6 5 19q1 11 1 40v382v30l-1 24q-2 36 -35 36q-21 0 -30 -16q-7 -12 -7 -59v-397q0 -30 1 -40zM330 3h-151q-22 -7 -45 -7q-54 0 -83 31q-16 19 -21 42q-5 20 -5 69v382v30l5 54q17 72 105 72q21 0 44 -6h151q15 0 15 -10v-47
q0 -10 -15 -10h-70q-15 0 -15 -10v-207q0 -10 15 -10h70q15 0 15 -10v-47q0 -9 -15 -9h-70q-15 0 -15 -10v-220q0 -10 15 -10h70q15 0 15 -10v-47q0 -10 -15 -10z" />
    <glyph glyph-name="Ydieresis" unicode="&#x178;" horiz-adv-x="279" 
d="M32 670h49q17 0 18 -10l41 -252q1 -6 5 -6t5 6l39 252q1 10 18 10h45q7 0 10 -2t2 -8l-79 -381q-3 -12 -3 -30v-236q0 -10 -15 -10h-43q-15 0 -15 10v235q0 6 -3 30l-86 382q-1 6 2 8t10 2z" />
    <glyph glyph-name="circumflex" unicode="&#x2c6;" horiz-adv-x="344" 
d="M81 693l50 79q3 8 21 8h28q17 0 22 -8l50 -79q4 -9 -9 -9h-7q-18 0 -23 8l-39 31q-9 11 -17 0l-39 -31q-6 -8 -24 -8h-5q-13 0 -8 9z" />
    <glyph glyph-name="tilde" unicode="&#x2dc;" 
d="M222 769q6 0 9.5 -3t2.5 -7q-8 -32 -20 -50t-20 -20l-8 -2q-18 0 -48 24q-15 12 -28 12t-21 -26q-3 -10 -17 -10q-6 0 -9.5 3t-2.5 7q5 20 11.5 35.5t12.5 22t11.5 10.5t8.5 5h3q17 0 47 -23q19 -14 30 -14q13 0 20 26q3 10 18 10z" />
    <glyph glyph-name="endash" unicode="&#x2013;" horiz-adv-x="350" 
d="M0 243v42q0 13 15 13h260q15 0 15 -13v-42q0 -12 -15 -12h-260q-15 0 -15 12z" />
    <glyph glyph-name="emdash" unicode="&#x2014;" horiz-adv-x="538" 
d="M0 243v42q0 13 15 13h430q15 0 15 -13v-42q0 -12 -15 -12h-430q-15 0 -15 12z" />
    <glyph glyph-name="quotedblleft" unicode="&#x201c;" horiz-adv-x="213" 
d="M0 534v20q0 60 21 91q4 9 8 14t6 5l2 1q7 0 9.5 -2t1.5 -8l-12 -58q0 -2 1 -3.5t3.5 -2t5 -0.5t5.5 0.5t5 0.5q14 0 14 -10v-48q0 -9 -15 -9h-40q-15 0 -15 9zM100 534v20q0 60 21 91q4 9 8 14t6 5l2 1q7 0 9.5 -2t1.5 -8l-12 -58q0 -2 1 -3.5t3.5 -2t5 -0.5t5.5 0.5
t5 0.5q14 0 14 -10v-48q0 -9 -15 -9h-40q-15 0 -15 9z" />
    <glyph glyph-name="quotedblright" unicode="&#x201d;" horiz-adv-x="213" 
d="M170 655v-20q0 -60 -21 -91q-4 -8 -8 -13t-6 -5l-2 -1q-7 0 -9.5 1.5t-1.5 7.5l12 58q0 6 -20 6q-14 0 -14 9v48q0 10 15 10h40q15 0 15 -10zM70 655v-20q0 -60 -21 -91q-4 -8 -8 -13t-6 -5l-2 -1q-7 0 -9.5 1.5t-1.5 7.5l12 58q0 6 -20 6q-14 0 -14 9v48q0 10 15 10h40
q15 0 15 -10z" />
    <glyph glyph-name="_146" horiz-adv-x="231" 
 />
    </font>
</defs>
</svg>
